* Dettagli Torrent   globale  | Commenti (1) 


- John Wick Chapter 3: Parabellum (2019).720p.H264.ita.eng.Ac3-5.1.sub.ita.eng-MIRCrew -


Download via torrent:
Categoria bittorrent BDRip
Descrizione
John Wick Chapter 3: Parabellum (2019).720p.H264.ita.eng.Ac3-5.1.sub.ita.eng-MIRCrew







NO FOUND ONLY ORIGINAL RELEASE


My release is always in double track audio italian and Original audio
for select it use VLC or dvd player home
not use wmp

John Wick Chapter 3 Parabellum (2019)

Quality MIRCrew on HD 720p da 2,6 gb









Titolo originale John Wick: Chapter 3 - Parabellum
Lingua originale inglese, russo, latino, giapponese
Paese di produzione Stati Uniti d'America
Anno 2019
Durata 130 min
Genere azione, thriller
Regia Chad Stahelski
Soggetto Derek Kolstad
Sceneggiatura Derek Kolstad, Shay Hatten, Chris Collins, Marc Abrams



   Keanu Reeves: John Wick
   Laurence Fishburne: Bowery King
   Ian McShane: Winston
   Lance Reddick: Charon
   Halle Berry: Sofia
   Mark Dacascos: Zero
   Asia Kate Dillon: La Giudicatrice
   Anjelica Huston: Direttore
   Saïd Taghmaoui: Anziano
   Jason Mantzoukas: Tick Tock Man
   Robin Lord Taylor: Amministratore
   Jerome Flynn: Berrada
   Randall Duk Kim: Doc
   Roger Yuan: Huang
   Tiger Hu Chen: Triad
   Silvio Simac: The Muscle
   Boban Marjanovi?: Ernest



Dieci minuti dopo la conclusione del film precedente, l'ex sicario John Wick è ora un uomo ricercato ed in fuga a Manhattan. Dopo l'uccisione non autorizzata del signore del crimine e del nuovo membro della Gran Tavola Santino D'Antonio nell'hotel Continental di New York City, John viene dichiarato "scomunicato" e gli viene posta una taglia di 14 milioni di dollari. In fuga da assassini, John raggiunge la New York Public Library e recupera un crocifisso e un medaglione "marcatore" da una pagina segreta in un libro............



Super-assassin John Wick is on the run after killing a member of the international assassin's guild, and with a $14 million price tag on his head - he is the target of hit men and women everywhere..

 





General
Unique ID                                : 210538247300989025025392645712108714597 (0x9E6431059790ED63AC8E199E9435FA65)
Complete name                            : John Wick Chapter 3 Parabellum (2019).720p.h264.ita.eng.sub.ita.eng-MIRCrewJohn Wick Chapter 3 Parabellum (2019).720p.h264.ita.eng.sub.ita.eng-MIRCrew.mkv
Format                                   : Matroska
Format version                           : Version 2
File size                                : 2.65 GiB
Duration                                 : 2h 11mn
Overall bit rate                         : 2 887 Kbps
Movie name                               : MIRCrew
Encoded date                             : UTC 2019-08-28T13:39:06Z
Writing application                      : mkvmerge v5.8.0 ('No Sleep / Pillow&#39 built on Sep  2 2012 15:37:04
Writing library                          : Lavf55.12.0

Video
ID                                       : 1
Format                                   : AVC
Format/Info                              : Advanced Video Codec
Format profile                           : [email protected]
Format settings, CABAC                   : Yes
Format settings, ReFrames                : 4 frames
Codec ID                                 : V_MPEG4/ISO/AVC
Duration                                 : 2h 11mn
Bit rate                                 : 2 000 Kbps
Width                                    : 1 280 pixels
Height                                   : 528 pixels
Display aspect ratio                     : 2.40:1
Frame rate                               : 24.000 fps
Color space                              : YUV
Chroma subsampling                       : 4:2:0
Bit depth                                : 8 bits
Scan type                                : Progressive
Bits/(Pixel*Frame)                       : 0.123
Stream size                              : 1.77 GiB (67%)
Title                                    : MIRCrew
Writing library                          : x264 core 142 r2479 dd79a61
Encoding settings                        : cabac=1 / ref=1 / deblock=1:0:0 / analyse=0x1:0x111 / me=hex / subme=2 / psy=1 / psy_rd=1.00:0.00 / mixed_ref=0 / me_range=16 / chroma_me=1 / trellis=0 / 8x8dct=0 / cqm=0 / deadzone=21,11 / fast_pskip=1 / chroma_qp_offset=0 / threads=9 / lookahead_threads=3 / sliced_threads=0 / nr=0 / decimate=1 / interlaced=0 / bluray_compat=0 / constrained_intra=0 / bframes=3 / b_pyramid=2 / b_adapt=1 / b_bias=0 / direct=1 / weightb=1 / open_gop=0 / weightp=1 / keyint=240 / keyint_min=24 / scenecut=40 / intra_refresh=0 / rc_lookahead=10 / rc=abr / mbtree=1 / bitrate=2000 / ratetol=1.0 / qcomp=0.60 / qpmin=0 / qpmax=69 / qpstep=4 / vbv_maxrate=50000 / vbv_bufsize=62500 / nal_hrd=none / filler=0 / ip_ratio=1.40 / aq=1:1.00
Language                                 : Italian
Default                                  : Yes
Forced                                   : No
Color primaries                          : BT.709-5, BT.1361, IEC 61966-2-4, SMPTE RP177
Transfer characteristics                 : BT.709-5, BT.1361
Matrix coefficients                      : BT.709-5, BT.1361, IEC 61966-2-4 709, SMPTE RP177

Audio #1
ID                                       : 2
Format                                   : AC-3
Format/Info                              : Audio Coding 3
Mode extension                           : CM (complete main)
Codec ID                                 : A_AC3
Duration                                 : 2h 11mn
Bit rate mode                            : Constant
Bit rate                                 : 448 Kbps
Channel(s)                               : 6 channels
Channel positions                        : Front: L C R, Side: L R, LFE
Sampling rate                            : 48.0 KHz
Bit depth                                : 16 bits
Compression mode                         : Lossy
Delay relative to video                  : -83ms
Stream size                              : 421 MiB (16%)
Title                                    : Ita Ac3 5.1
Language                                 : Italian
Default                                  : Yes
Forced                                   : No

Audio #2
ID                                       : 3
Format                                   : AC-3
Format/Info                              : Audio Coding 3
Mode extension                           : CM (complete main)
Codec ID                                 : A_AC3
Duration                                 : 2h 11mn
Bit rate mode                            : Constant
Bit rate                                 : 448 Kbps
Channel(s)                               : 6 channels
Channel positions                        : Front: L C R, Side: L R, LFE
Sampling rate                            : 48.0 KHz
Bit depth                                : 16 bits
Compression mode                         : Lossy
Delay relative to video                  : -83ms
Stream size                              : 421 MiB (16%)
Title                                    : Eng Ac3 5.1
Language                                 : English
Default                                  : No
Forced                                   : No

Menu
00:00:00.000                             : :Capitolo 01
00:09:18.125                             : :Capitolo 02
00:14:37.833                             : :Capitolo 03
00:24:21.541                             : :Capitolo 04
00:31:56.333                             : :Capitolo 05
00:38:20.958                             : :Capitolo 06
00:50:56.166                             : :Capitolo 07
01:03:24.583                             : :Capitolo 08
01:21:03.625                             : :Capitolo 09
01:41:57.500                             : :Capitolo 10
01:56:24.083                             : :Capitolo 11
02:02:23.166                             : :Capitolo 12





Info: Per scaricare devi usare un client come uTorrent o Transmission
AnnounceURL
udp://tracker.opentrackr.org:1337/announce
Hash feabd14f9c72afef56618970a6d3bbfcff2c2e0d
Peers seeds: 211 , leech: 153
Size 2.65 GB
Completato 3296x
Aggiunto 28.08.19 - 18:08:20
Uploader   robbyrs
Votazione (Voti: 3)


Condividi questo bittorrent:


html/blog:
">

bbcode/forum:




Aggiungi Commento
Ultimi commenti
  
Many Thanks !!
29/08 15.25
Tutti commenti (1)